Crear archivos .CUE

Voinyx
#1 por Voinyx el 07/02/2005
hola muy buenas. Una pregunta sencilla. Me gustaria saber como crear archivos .Cue para mis sesiones (que suelo grabar con soundforge). Me gustaría guardarlas en Mp3 , acompañadas de un archivo.Cue por si las paso algun día a CD Audio y tener los temas por Track.

La cosa sería tratarlo tal y como hago con CD Architect (ir marcando los tracks sobre el archivo Wav / mp3), y después poder guardarlos en un archivo .CUE para luego, por ejemplo, grabarlo con Nero u otro soft que acepte .CUE .

Supongo que me he explicado con claridad. Un saludo todos los hispasonicos, y gracias de antemano.
Subir
nanocangas
#2 por nanocangas el 08/02/2005
Aquí te dejo un Cue mio. Ahora solo tienes q sustituir tus datos por los mios

PERFORMER "Nano"
TITLE "De lo bueno, lo mejor, y de lo mejor, lo superior 22-04 -2004"
FILE "Nano - De lo bueno, lo mejor, y de lo mejor, lo superior 22-04 -2004.mp3" MP3
TRACK 01 AUDIO
TITLE "Rule By Law"
PERFORMER "Surgeon & Regis"
INDEX 01 00:00:00
TRACK 02 AUDIO
TITLE "Plnovous"
PERFORMER "Loktibrada"
INDEX 01 02:30:00
TRACK 03 AUDIO
TITLE "Guerrilla"
PERFORMER "Christian Wunsch"
INDEX 01 04:50:00
TRACK 04 AUDIO
TITLE "Extratime"
PERFORMER "Rumenige"
INDEX 01 07:36:00
TRACK 05 AUDIO
TITLE "Player 15 B1"
PERFORMER "Player"
INDEX 01 09:34:00
TRACK 06 AUDIO
TITLE "Diapason"
PERFORMER "Marco Marola"
INDEX 01 13:41:00
TRACK 07 AUDIO
TITLE "Full Loaded"
PERFORMER "Groof"
INDEX 01 18:10:00
TRACK 08 AUDIO
TITLE "Death before surrender"
PERFORMER "Surgeon"
INDEX 01 20:00:00
TRACK 09 AUDIO
TITLE "After dark"
PERFORMER "James Ruskin"
INDEX 01 23:11:00
TRACK 10 AUDIO
TITLE "One meter"
PERFORMER "Archae+Grovskopa"
INDEX 01 26:50:00
TRACK 11 AUDIO
TITLE "La real"
PERFORMER "Surgeon"
INDEX 01 29:46:00
TRACK 12 AUDIO
TITLE "Spastik"
PERFORMER "Plastikman"
INDEX 01 33:27:00
TRACK 13 AUDIO
TITLE "Through the fog-fixed"
PERFORMER "Reeko"
INDEX 01 36:05:00
TRACK 14 AUDIO
TITLE "Contamination B2"
PERFORMER "Christian Wunsch"
INDEX 01 39:10:00
TRACK 15 AUDIO
TITLE "Snapshot"
PERFORMER "Exium"
INDEX 01 42:33:00
TRACK 16 AUDIO
TITLE "Contamination A1"
PERFORMER "Christian Wunsch"
INDEX 01 46:30:00
TRACK 17 AUDIO
TITLE "Game Over"
PERFORMER "Angel Alanis & Rees Urban pres Pair of Jacks"
INDEX 01 50:00:00
TRACK 18 AUDIO
TITLE "Zet Oviedo A2"
PERFORMER "Exium"
INDEX 01 55:20:00
TRACK 19 AUDIO
TITLE "Alarms (Ben Sims remix)"
PERFORMER "Jeff Mills"
INDEX 01 57:40:00
TRACK 20 AUDIO
TITLE "Tonatol"
PERFORMER "Umek"
INDEX 01 61:17:00
TRACK 21 AUDIO
TITLE "Muffed up"
PERFORMER "Organ Grinda"
INDEX 01 64:02:00
TRACK 22 AUDIO
TITLE "Blood pressure"
PERFORMER "Reeko"
INDEX 01 68:03:00
TRACK 23 AUDIO
TITLE "End of chapter"
PERFORMER "Marco Carola & Cisco Ferreira"
INDEX 01 72:47:00
Subir
Voinyx
#3 por Voinyx el 08/02/2005
Estoooo.... gracias por tu respuesta... pero "el concepto" no es ese . Sia abro un CUE como .txt ya se que puedo editarlo (cuando he tenido problemas con Nero, ya lo he arreglado asi) . Además, hacerlo de ese modo, me supone tener que mirar el minutaje de cada track, lo que hace la edición más pesada aun. Me referia a si existe algun programa o editor de Audio (o parecido) donde una vez marcados los Tracks en el archivo de audio, puedas guardar esa lista como archivo .CUE , tal y como hace por ejemplo EAC (Exact Audio Copy) que ripea una sesión de CD en un solo archivo de Audio y le adjunta un CUE con los nombres, tracks y minutaje ...

Lo que ahora me hace recordar... tal vez EAC pueda hacerlo...
De todos modos gracias por tu respuesta. Si alguien tiene la solución, le agradecería su ayuda.

Saludos !
Subir
Respuesta rápida

Regístrate o para poder postear en este hilo